+ l33tt3am.net »  :::: Bollywood Zone » Regional Movies » Regional Movies in Hindi
|- Heart Attack 2 (Gunde Jaari Gallanthayyinde) (2018) 720p Hindi Dubbed 2.0 CH [Team SSX]

Heart Attack 2 (Gunde Jaari Gallanthayyinde) (2018) 720p Hindi Dubbed 2.0 CH [Team SSX]

0 Members and 1 Guest are viewing this topic.

April 06, 2018, 11:54:40 PM
  • *****************
  • Head Admin
  • Legend Member
  • *****
  • Topic Author
  • Thank You: 6077
  • Reputation: 2667
  • Activity:
    100%
  • Country: in
  • Posts: 18070
  • Topics: 10734
  • Join Date: Mar 2012
  • The Time Is Now......


Heart Attack 2 (Gunde Jaari Gallanthayyinde) (2018) 720p Hindi Dubbed 2.0 CH [Team SSX]





General

Format                                   : Matroska
Format version                           : Version 4 / Version 2
File size                                : 1.23 GiB
Duration                                 : 2 h 4 min
Overall bit rate                         : 1 414 kb/s


Video
ID                                       : 1
Format                                   : AVC
Format/Info                              : Advanced Video Codec
Format profile                           : [email protected]
Format settings                          : CABAC / 3 Ref Frames
Format settings, CABAC                   : Yes
Format settings, RefFrames               : 3 frames
Codec ID                                 : V_MPEG4/ISO/AVC
Duration                                 : 2 h 4 min
Bit rate                                 : 1 287 kb/s
Width                                    : 1 280 pixels
Height                                   : 720 pixels
Display aspect ratio                     : 16:9
Frame rate mode                          : Constant
Frame rate                               : 25.000 FPS
Color space                              : YUV
Chroma subsampling                       : 4:2:0
Bit depth                                : 8 bits
Scan type                                : Progressive
Bits/(Pixel*Frame)                       : 0.056
Stream size                              : 1.12 GiB (91%)
Default                                  : Yes
Forced                                   : No
Color range                              : Limited
Color primaries                          : BT.709
Transfer characteristics                 : BT.709
Matrix coefficients                      : BT.709

Audio
ID                                       : 2
Format                                   : AAC
Format/Info                              : Advanced Audio Codec
Format profile                           : LC
Codec ID                                 : A_AAC-2
Duration                                 : 2 h 4 min
Bit rate                                 : 126 kb/s
Channel(s)                               : 2 channels
Channel positions                        : Front: L R
Sampling rate                            : 44.1 kHz
Frame rate                               : 43.066 FPS (1024 SPF)
Compression mode                         : Lossy
Stream size                              : 111 MiB (9%)
Language                                 : Hindi
Default                                  : Yes
Forced                                   : No


































Share this topic on FacebookShare this topic on GoogleShare this topic on MySpaceShare this topic on TwitterShare this topic on Yahoo



Thanks given by:


Tags:
 

Related Topics




Back to top